舞力对决

6.8

主演:乔治·山普森 夏洛特·兰普林 多样化街舞组合 Diversity 完美无瑕街舞组合 Flawless 妮可拉·伯利 理查德·温瑟 蕾切尔·麦克道威尔 Lil Steph  

导演:马科斯·吉瓦 丹尼亚·帕斯奎尼 

剧情介绍

大陆剧《舞力对决》是一部马科斯·吉瓦,丹尼亚·帕斯奎尼导演在,由乔治·山普森,夏洛特·兰普林,多样化街舞组合 Diversity,完美无瑕街舞组合 Flawless,妮可拉·伯利,理查德·温瑟,蕾切尔·麦克道威尔,Lil Steph等领衔主演的 英国剧。

◎译  名 舞力对决/3D舞力对决(台)/街舞3D(港)

◎片  名 StreetDance 3D

◎年  代 2010

◎国  家 英国

◎类  别 爱情/音乐/歌舞

◎语  言 英语

◎上映日期 2010-05-21(英国)/2011-09-08(中国大陆)

◎IMDb评分  5.9/10 from 8,237 users

◎IMDb链接  http://www.imdb.com/title/tt1447972/

◎豆瓣评分 6.8/10 from 5,325 users

◎豆瓣链接 http://movie.douban.com/subject/3775163/

◎片  长 98分钟(英国)

◎导  演 马科斯·吉瓦 Max Giwa / 丹尼亚·帕斯奎尼 Dania Pasquini

◎主  演 乔治·山普森 George Sampson

      夏洛特·兰普林 Charlotte Rampling

      多样化街舞组合 Diversity

      完美无瑕街舞组合 Flawless

      尼古拉·博利 Nichola Burley

      理查德·温瑟 Richard Winsor

      蕾切尔·麦克多瓦尔 Rachel McDowall

      Lil Steph

 

◎简  介

 

  《舞力对决》又名《街舞3D》,影片被誉为是英国首部3D电影。

  青春靓丽的舞者卡莉(妮可拉·布利 Nichola Burley 饰)的人生正值风光之时,她拥有迷人的帅哥男友杰伊,两人加入的舞蹈团体也刚打入英国街舞冠军总决赛,但杰伊在这个关键时刻却突然离开卡莉及舞团。残酷的现实不仅令卡莉心碎,也让其他团员的梦想岌岌可危。芭蕾舞学校校长海伦娜(夏洛特·兰普林 Charlotte Rampling 饰)被卡莉及其舞团的舞技和热忱打动,伸出援手。他们可以在芭蕾舞学院的豪华舞蹈教室练舞,但要跟芭蕾舞者一起训练,才能得到免费的训练场地。高贵的芭蕾、草根的街舞,这本是两个毫无瓜葛并且还有些不共戴天的舞蹈形式就这么走到了一起。当芭蕾与街舞这两种南辕北辙的舞蹈正面交锋时,冲突随即展开。卡莉的冠军梦想能否最终达成呢?

 

Video

ID                                       : 1

Format                                   : AVC

Format/Info                              : Advanced Video Codec

Format profile                           : [email protected]

Format settings, CABAC                   : Yes

Format settings, ReFrames                : 4 frames

Codec ID                                 : V_MPEG4/ISO/AVC

Duration                                 : 1h 38mn

Bit rate                                 : 13.0 Mbps

Width                                    : 1 920 pixels

Height                                   : 1 080 pixels

Display aspect ratio                     : 16:9

Frame rate mode                          : Constant

Frame rate                               : 24.000 fps

Color space                              : YUV

Chroma subsampling                       : 4:2:0

Bit depth                                : 8 bits

Scan type                                : Progressive

Bits/(Pixel*Frame)                       : 0.261

Stream size                              : 8.93 GiB (90%)

Writing library                          : x264 core 114 r1924 08d04a4

Encoding settings                        : cabac=1 / ref=4 / deblock=1:-3:-2 / analyse=0x3:0x113 / me=umh / subme=10 / psy=1 / psy_rd=1.00:0.00 / mixed_ref=1 / me_range=32 / chroma_me=1 / trellis=2 / 8x8dct=1 / cqm=0 / deadzone=21,11 / fast_pskip=0 / chroma_qp_offset=-2 / threads=3 / sliced_threads=0 / nr=0 / decimate=0 / interlaced=0 / constrained_intra=0 / bframes=8 / b_pyramid=2 / b_adapt=2 / b_bias=0 / direct=3 / weightb=1 / open_gop=0 / weightp=2 / keyint=250 / keyint_min=24 / scenecut=40 / intra_refresh=0 / rc_lookahead=40 / rc=crf / mbtree=0 / crf=17.2 / qcomp=0.60 / qpmin=10 / qpmax=51 / qpstep=4 / vbv_maxrate=50000 / vbv_bufsize=62500 / crf_max=0.0 / nal_hrd=none / ip_ratio=1.40 / pb_ratio=1.30 / aq=1:0.90

Language                                 : English

Default                                  : Yes

Forced                                   : No

Color range                              : Limited

Matrix coefficients                      : BT.709

 

Audio

ID                                       : 2

Format                                   : DTS

Format/Info                              : Digital Theater Systems

Mode                                     : 16

Format settings, Endianness              : Big

Codec ID                                 : A_DTS

Duration                                 : 1h 38mn

Bit rate mode                            : Constant

Bit rate                                 : 1 152 Kbps

Channel(s)                               : 6 channels

Channel positions                        : Front: L C R, Side: L R, LFE

Sampling rate                            : 48.0 KHz

Bit depth                                : 24 bits

Compression mode                         : Lossy

Stream size                              : 810 MiB (8%)

Language                                 : English

Default                                  : Yes

Forced                                   : No

 

Text

ID                                       : 3

Format                                   : UTF-8

Codec ID                                 : S_TEXT/UTF8

Codec ID/Info                            : UTF-8 Plain Text

Language                                 : English

Default                                  : No

Forced                                   : No

 

Menu

00:00:00.000                             : :00:00:00.000

00:09:34.958                             : :00:09:34.958

00:15:36.542                             : :00:15:36.542

00:21:15.333                             : :00:21:15.333

00:31:08.042                             : :00:31:08.042

00:38:16.917                             : :00:38:16.917

00:46:41.708                             : :00:46:41.708

00:54:30.542                             : :00:54:30.542

01:02:20.500                             : :01:02:20.500

01:12:55.333                             : :01:12:55.333

01:20:55.917                             : :01:20:55.917

01:28:58.750                             : :01:28:58.750

。欢迎在线观看,由乔治·山普森,夏洛特·兰普林,多样化街舞组合 Diversity,完美无瑕街舞组合 Flawless,妮可拉·伯利,理查德·温瑟,蕾切尔·麦克道威尔,Lil Steph等领衔主演的  英国剧《舞力对决》,乐乐影院第一时间为你提供《舞力对决》,如果你喜欢《舞力对决》请把它分享给的朋友,有您们的支持我们会做的更好。祝你观片愉快!
详情

精彩影评

    游客 2020-02-28
    剧情演技都很狗血...女主的口音让人崩溃...


    游客 2020-02-28
    看完舞出我人生3再看这个,实在是惨不忍睹啊~


    游客 2020-02-28
    这节奏感确实非常差。。故事没劲儿。。舞斗太少而且不带味道。。最后一场决赛,丫的,那服装也太差了吧。。。女主角挺好看,问题是,这肉体啊肉体。。很多个人show的说。。PS:跟舞出我人生比,确实稚嫩了。


    游客 2020-02-28
    跳的还不错。


猜你喜欢

  • 高清版

    校园情圣

  • 高清版

    要强的人

  • 高清版

    忘记你,记得爱情

  • 高清版

    幸福,触手可及!

  • 高清版

    韫色过浓

  • 高清版

    蜂鸟

  • 高清版

    火口的两人

  • 高清版

    破碎的拥抱

  • 高清版

    日沐星辰

Copyright © 2018-2020