我配不上她

6.6

主演:杰伊·巴鲁切尔 爱丽丝·伊芙 T.J. Miller 迈克·沃格尔 内特·托伦斯 林赛·斯隆 凯尔·柏海莫 克里斯滕·里特  

导演:吉姆·费尔德·史密斯 

剧情介绍

大陆剧《我配不上她》是一部吉姆·费尔德·史密斯导演在,由杰伊·巴鲁切尔,爱丽丝·伊芙,T.J. Miller,迈克·沃格尔,内特·托伦斯,林赛·斯隆,凯尔·柏海莫,克里斯滕·里特等领衔主演的 美国剧。

身形矮小、其貌不扬的柯克(杰伊·巴鲁切尔 Jay Baruchel 饰)是供职于匹兹堡机场的一名普通保安。他的爱情可以称得上是完败,女友玛妮(林德赛·斯隆 Lindsay Sloane 饰)弃之而去,他一心重修旧好而不能;工作枯燥乏味,波澜不惊,平时最多和学生时代的好友扯扯皮、谈谈心,俨然一个不被人关注的废柴。

然而就是这么一个小人物,却狠狠交了一把桃花运。偶然机会,柯克邂逅了美丽出众、光彩夺目的富家女莫莉(爱丽丝·伊芙 Alice Eve 饰),对方热情主动,令柯克如坠梦中。一段身份地位乃至各个方面都极不相称的恋情就此展开,不过诸多的麻烦也随即涌现,柯克该如何面对这突如其来的一切……


◎译  名 我配不上她/辣妹爱宅男/笨仔追爱记/辣妹靠过来/阿宅站起來

◎片  名 She's Out of My League

◎年  代 2010

◎国  家 美国

◎类  别 喜剧/爱情

◎语  言 英语/乌克兰语

◎上映日期 2010-03-12

◎IMDb评分  6.4/10 from 95,789 users

◎IMDb链接  http://www.imdb.com/title/tt0815236/

◎豆瓣评分 6.6/10 from 35,394 users

◎豆瓣链接 http://movie.douban.com/subject/3006424/

◎片  长 USA: 104 分钟

◎导  演 吉姆·费尔德·史密斯 Jim Field Smith

◎主  演 杰伊·巴鲁切尔 Jay Baruchel

      爱丽丝·伊芙 Alice Eve

      T.J. Miller

      迈克·沃格尔 Mike Vogel

      内特·托伦斯 Nate Torrence

      林赛·斯隆 Lindsay Sloane

      凯尔·柏海莫 Kyle Bornheimer

      克里斯滕·蕊特 Krysten Ritter


◎获奖情况


  第12届美国青少年选择奖 (2010)

  最佳喜剧片(提名)


Video

ID                                       : 1

Format                                   : AVC

Format/Info                              : Advanced Video Codec

Format profile                           : [email protected]

Format settings, CABAC                   : Yes

Format settings, ReFrames                : 5 frames

Codec ID                                 : V_MPEG4/ISO/AVC

Duration                                 : 1h 44mn

Bit rate                                 : 9 350 Kbps

Width                                    : 1 920 pixels

Height                                   : 816 pixels

Display aspect ratio                     : 2.35:1

Frame rate mode                          : Constant

Frame rate                               : 23.976 fps

Color space                              : YUV

Chroma subsampling                       : 4:2:0

Bit depth                                : 8 bits

Scan type                                : Progressive

Bits/(Pixel*Frame)                       : 0.249

Stream size                              : 6.67 GiB (84%)

Writing library                          : x264 core 98 r1629 2e81ce1

Encoding settings                        : cabac=1 / ref=5 / deblock=1:0:0 / analyse=0x3:0x113 / me=umh / subme=7 / psy=1 / psy_rd=1.00:0.00 / mixed_ref=1 / me_range=16 / chroma_me=1 / trellis=1 / 8x8dct=1 / cqm=0 / deadzone=21,11 / fast_pskip=1 / chroma_qp_offset=-2 / threads=12 / sliced_threads=0 / nr=0 / decimate=1 / interlaced=0 / constrained_intra=0 / bframes=3 / b_pyramid=2 / b_adapt=1 / b_bias=0 / direct=1 / weightb=1 / weightp=2 / keyint=250 / keyint_min=25 / scenecut=40 / intra_refresh=0 / rc_lookahead=40 / rc=2pass / mbtree=1 / bitrate=9350 / ratetol=1.0 / qcomp=0.60 / qpmin=10 / qpmax=51 / qpstep=4 / cplxblur=20.0 / qblur=0.5 / ip_ratio=1.40 / aq=1:1.00

Language                                 : English

Default                                  : No

Forced                                   : No


Audio

ID                                       : 2

Format                                   : DTS

Format/Info                              : Digital Theater Systems

Mode                                     : 16

Format settings, Endianness              : Big

Codec ID                                 : A_DTS

Duration                                 : 1h 44mn

Bit rate mode                            : Constant

Bit rate                                 : 1 509 Kbps

Channel(s)                               : 6 channels

Channel positions                        : Front: L C R, Side: L R, LFE

Sampling rate                            : 48.0 KHz

Bit depth                                : 24 bits

Compression mode                         : Lossy

Stream size                              : 1.10 GiB (14%)

Language                                 : English

Default                                  : Yes

Forced                                   : No


Text

ID                                       : 3

Format                                   : UTF-8

Codec ID                                 : S_TEXT/UTF8

Codec ID/Info                            : UTF-8 Plain Text

Language                                 : English

Default                                  : Yes

Forced                                   : No


。欢迎在线观看,由杰伊·巴鲁切尔,爱丽丝·伊芙,T.J. Miller,迈克·沃格尔,内特·托伦斯,林赛·斯隆,凯尔·柏海莫,克里斯滕·里特等领衔主演的  美国剧《我配不上她》,乐乐影院第一时间为你提供《我配不上她》,如果你喜欢《我配不上她》请把它分享给的朋友,有您们的支持我们会做的更好。祝你观片愉快!
详情

精彩影评

    游客 2020-02-09
    女主角不怎麼好看


    游客 2020-02-09
    女一好丑= =


    游客 2020-02-09
    没有谁配不上谁,只有合不合适


猜你喜欢

  • 高清版

    荒野大飚客

  • 高清版

    侦探:开端

  • 高清版

    始动

  • 高清版

    猪头逛大街2

  • 高清版

    特务妈咪

  • [中文字幕]

    妻子小姐

  • 高清版

    牙仙2

  • 高清版

    我和我的家乡

  • 高清版

    呆福

  • 高清版

    疯狂的外星人

Copyright © 2018-2020