纸镇

6.6

主演:纳特·沃尔夫 卡拉·迪瓦伊 贾斯蒂斯·史密斯 奥斯汀·艾布拉姆斯 豪斯顿·塞奇 洁丝·辛克莱 格里芬·弗里曼 凯特琳·卡弗 卡拉·布欧诺 苏珊·马克·米勒 汤姆·希尔曼 梅格·克罗斯比 吉姆·R·科曼  

导演:杰克·施莱尔 

剧情介绍

大陆剧《纸镇》是一部杰克·施莱尔导演在,由纳特·沃尔夫,卡拉·迪瓦伊,贾斯蒂斯·史密斯,奥斯汀·艾布拉姆斯,豪斯顿·塞奇,洁丝·辛克莱,格里芬·弗里曼,凯特琳·卡弗,卡拉·布欧诺,苏珊·马克·米勒,汤姆·希尔曼,梅格·克罗斯比,吉姆·R·科曼等领衔主演的 美国剧。

  昆汀(纳特·沃尔夫 Nat Wolff 饰)从小就单恋勇敢漂亮的邻居玛戈(卡拉·迪瓦伊 Cara Delevingne 饰),但两人多年的校园生活却是天差地别,没机会好好交流。一天夜里,玛戈突然潜入昆汀的房间,要求他协助报复她的花心男友,昆汀也乖乖答应。

  通宵冒险结束后 ,玛戈离奇失踪,她的家人和警察都认为这是她的一个小玩笑,只有昆汀察觉出其中异样。根据玛戈昨夜的反常举动与她刻意留下的蛛丝马迹,昆汀与他的朋友开始了寻找玛戈的旅程。一张惠特曼的诗歌残片、一段网站上的留言,线索零碎又环环相扣。昆汀发现他越接近目的地,越对自己的发小感到陌生……

  “你将前往纸上城市,永远不会回来。”玛戈留下的文字,引领昆汀逐步走进那座由现实与虚构交杂而成的纸上城市。

◎译  名 纸镇/纸上城市(台)

◎片  名 Paper Towns

◎年  代 2015

◎国  家 美国

◎类  别 剧情/爱情/悬疑

◎语  言 英语

◎上映日期 2015-07-24(美国)

◎IMDb评分  6.8/10 from 16,923 users

◎IMDb链接  http://www.imdb.com/title/tt3622592/

◎豆瓣评分 6.6/10 from 365 users

◎豆瓣链接 http://movie.douban.com/subject/25944282/

◎片  长 109分钟

◎导  演 杰克·施莱尔 Jake Schreier

◎主  演 纳特·沃尔夫 Nat Wolff

      卡拉·迪瓦伊 Cara Delevingne

      贾斯蒂斯·史密斯 Justice Smith

      奥斯汀·艾布拉姆斯 Austin Abrams

      豪斯顿·塞奇 Halston Sage

      洁丝·辛克莱 Jaz Sinclair

      格里芬·弗里曼 Griffin Freeman

      凯特琳·卡弗 Caitlin Carver

      卡拉·布欧诺 Cara Buono

      苏珊·马克·米勒 Susan Macke Miller

      汤姆·希尔曼 Tom Hillmann

      梅格·克罗斯比 Meg Crosbie

      吉姆·R·科曼 Jim R. Coleman

◎获奖情况

 

  第17届美国青少年选择奖 (2015)

  最佳突破表演电影新星 卡拉·迪瓦伊

  最佳暑期电影

  最佳暑期电影(提名)

  最佳暑期电影男演员(提名) 纳特·沃尔夫

  最佳暑期电影女演员 卡拉·迪瓦伊

 

Video

ID                                       : 1

Format                                   : AVC

Format/Info                              : Advanced Video Codec

Format profile                           : [email protected]

Format settings, CABAC                   : Yes

Format settings, ReFrames                : 4 frames

Codec ID                                 : avc1

Codec ID/Info                            : Advanced Video Coding

Duration                                 : 1h 49mn

Bit rate                                 : 2 481 Kbps

Width                                    : 1 280 pixels

Height                                   : 536 pixels

Display aspect ratio                     : 2.40:1

Frame rate mode                          : Constant

Frame rate                               : 30.000 fps

Color space                              : YUV

Chroma subsampling                       : 4:2:0

Bit depth                                : 8 bits

Scan type                                : Progressive

Bits/(Pixel*Frame)                       : 0.121

Stream size                              : 1.89 GiB (91%)

Title                                    : Paper.Towns.2015.720p.WEBRip.x264.AAC2.0-RARBG

Writing library                          : x264 core 148 r2597M e86f3a1

Encoding settings                        : cabac=1 / ref=4 / deblock=1:0:0 / analyse=0x3:0x113 / me=hex / subme=7 / psy=1 / psy_rd=1.00:0.00 / mixed_ref=1 / me_range=16 / chroma_me=1 / trellis=1 / 8x8dct=1 / cqm=0 / deadzone=21,11 / fast_pskip=1 / chroma_qp_offset=-2 / threads=40 / lookahead_threads=8 / sliced_threads=0 / nr=0 / decimate=1 / interlaced=0 / bluray_compat=0 / constrained_intra=0 / bframes=3 / b_pyramid=2 / b_adapt=1 / b_bias=0 / direct=1 / weightb=1 / open_gop=0 / weightp=2 / keyint=250 / keyint_min=25 / scenecut=40 / intra_refresh=0 / rc_lookahead=40 / rc=crf / mbtree=1 / crf=16.0 / qcomp=0.60 / qpmin=0 / qpmax=69 / qpstep=4 / ip_ratio=1.40 / aq=1:1.00

Language                                 : English

 

Audio

ID                                       : 2

Format                                   : AAC

Format/Info                              : Advanced Audio Codec

Format profile                           : LC

Codec ID                                 : 40

Duration                                 : 1h 49mn

Bit rate mode                            : Constant

Bit rate                                 : 224 Kbps

Channel(s)                               : 2 channels

Channel positions                        : Front: L R

Sampling rate                            : 44.1 KHz

Compression mode                         : Lossy

Stream size                              : 175 MiB (8%)

Title                                    : Paper.Towns.2015.720p.WEBRip.x264.AAC2.0-RARBG

Language                                 : English


。欢迎在线观看,由纳特·沃尔夫,卡拉·迪瓦伊,贾斯蒂斯·史密斯,奥斯汀·艾布拉姆斯,豪斯顿·塞奇,洁丝·辛克莱,格里芬·弗里曼,凯特琳·卡弗,卡拉·布欧诺,苏珊·马克·米勒,汤姆·希尔曼,梅格·克罗斯比,吉姆·R·科曼等领衔主演的  美国剧《纸镇》,乐乐影院第一时间为你提供《纸镇》,如果你喜欢《纸镇》请把它分享给的朋友,有您们的支持我们会做的更好。祝你观片愉快!
详情

精彩影评

    游客 2020-02-16
    好喜欢这个电影的青春气息!曾经年少,不谙世事,能够为爱疯狂一把,虽然最后发现,爱情只是幻想中的,但依然经历了这段有兄弟陪伴的美好旅程,在毕业前夕度过了人生最激动欣喜的几天,看着最后prom上每个人开心的跳舞真是会笑出声了。PS,Ansel Elgort客串的收银员镜头出现时,全场少女惊呼!


    游客 2020-02-16
    好片~~~仿佛能看到一种生命的执念,就是不断执着地去追寻,然后等真的找到就会发现结果已经并不那么重要了,并且那几个人物各自代表了社会上一种不同的人格,总之属于看完还能想比较多的那种~~~不过分类有点扯,哪儿来的悬疑。。。


    游客 2020-02-16
    我室友,是john green的脑残粉:)不过没想到不难看诶~我觉得只要有Cara Delevingne吹吹头发跑跑步我看个80来集没问题:)


    游客 2020-02-08
    she is a girl


    游客 2020-02-08
    这得是拥有多么少女的一颗心才能写出这么狗血不要脸的文字。2星的原因还因为男女主角都太丑,没有代入感。


猜你喜欢

Copyright © 2018-2020